<?xml version="1.0" standalone="no"?>
<!DOCTYPE svg PUBLIC "-//W3C//DTD SVG 1.1//EN" "http://www.w3.org/Graphics/SVG/1.1/DTD/svg11.dtd">
<svg xmlns="http://www.w3.org/2000/svg">
<metadata>Copyright (C) 2022 by original authors @ fontello.com</metadata>
<defs>
<font id="hb-icons" horiz-adv-x="1000" >
<font-face font-family="hb-icons" font-weight="400" font-stretch="normal" units-per-em="1000" ascent="850" descent="-150" />
<missing-glyph horiz-adv-x="1000" />
<glyph glyph-name="arrow-right" unicode="&#xe812;" d="M397 635l278-286-277-283 35-35 311 318-311 321-36-35z" horiz-adv-x="1000" />

<glyph glyph-name="check" unicode="&#xe813;" d="M399 188l-191 192-35-36 226-226 415 412-35 35-380-377z" horiz-adv-x="1000" />

<glyph glyph-name="card-disabled" unicode="&#xf101;" d="M620 257l254 0 0-73-254 0z m0 0m-514 1l98 0 24 24-122 0z m0 0m0-74l25 0 24 25-49 0z m0 0m0 507l529 0 25 24-563 0c-99 0-97-85-97-85l0-466c0-29 15-56 39-72l27 27c-12 14-18 31-17 49l0 293 358 0 123 123-481 0 0 42c0 0-3 64 57 65z m0 0m875-61c0 0 1 57-53 78l72 72-69 70-833-836 69-70 135 135 582 0c98 0 97 85 97 85z m-77 54c30-17 28-57 28-57l0-43-127 0z m-24-581l-554 0 81 81 110 0 0 25-85 0 251 252 249 0 0-294c0 0 3-60-52-64z m0 0" horiz-adv-x="1000" />

<glyph glyph-name="chat-outline" unicode="&#xf102;" d="M128 28l19 153c-69 50-109 125-113 207 0 165 175 296 394 296 169 0 319-81 372-203l22-47-50 16c-38 13-81 22-122 22-150 0-275-88-275-194 0-56 34-109 97-147l62-37-71-3c-57-3-113 0-166 15l-169-78z m297 613c-194 0-350-113-350-253 3-72 41-138 103-179l13-6-13-100 110 53 9-3c31-9 62-15 97-15-41 40-66 90-66 143 0 132 144 238 319 238 28 0 56-3 84-10-59 79-175 132-306 132z m413-641l-79 56c-37-9-75-12-112-15-72 0-144 18-200 53l22 37c50-31 112-47 178-47 0 0 0 0 0 0 37 0 75 7 109 16l10 3 37-28 10 47 9 6c62 38 100 91 100 147 0 72-59 141-153 172l15 41c113-41 182-122 182-216 0-72-41-138-113-181l-15-91z" horiz-adv-x="1000" />

<glyph glyph-name="chat" unicode="&#xf103;" d="M316 263c0 140 150 256 347 256 34 0 68-3 103-13-63 94-194 157-347 157v0c-216 3-388-125-388-285 3-84 57-159 128-206l-15-113 125 60c37-10 81-19 122-22-47 47-75 103-75 166z m653-4c0 122-138 216-306 216-169 0-307-94-307-216s138-215 307-215c40 0 93 9 131 22l44-32 9 57c75 40 122 100 122 168l0 0z" horiz-adv-x="1000" />

<glyph glyph-name="close" unicode="&#xf104;" d="M572 350l328 331-72 72-328-331-328 331-72-72 328-331-328-331 72-72 328 331 328-331 72 72-328 331z" horiz-adv-x="1000" />

<glyph glyph-name="download" unicode="&#xf105;" d="M875 469l-375-369-375 369h216v319h322v-319h212z m-812-453h875v-94h-875v94z" horiz-adv-x="1000" />

<glyph glyph-name="edit" unicode="&#xf106;" d="M41-119c-10 0-10 3-10 10 3 12 3 25 7 37 12 69 25 138 34 203 0 10 6 16 12 22 219 219 438 438 657 656 9 10 9 10 18 0 69-68 135-134 204-203 9-9 9-9 0-18-138-138-279-279-416-416-72-72-144-144-216-216-9-9-18-19-28-28-6-3-12-6-19-9-56-10-109-19-165-28l-72-10-6 0z m859 719c0 3-3 3-3 6-16 16-34 35-50 50-3 3-6 3-9 3 0 0 0 0-4-3-3-3-3-3-6-6l-590-591c-4-3-4-3-7-6-3-3-3-6-3-12 0 0 0 0 3-3 16-16 32-32 47-47 3-4 10-7 13-4 0 0 3 0 3 4 3 3 3 3 6 6l588 591c3 3 3 3 6 6 3 0 3 3 6 6z m-91 91c0 3-3 3-3 6-15 16-34 34-50 50-3 3-6 3-9 0 0 0 0 0 0 0l-9-9-494-494-97-97c-9-9-9-9 0-22 12-12 25-25 37-37 16-16 16-16 29 0l584 587c3 3 6 6 9 9 0 0 0 4 3 7z m-690-600c0 0 0-3-3-3-7-29-10-60-16-91 0-6 3-10 6-13 10-9 19-18 28-28 4-3 10-6 16-6l84 16c4 0 7 0 10 3-44 40-85 81-125 122z" horiz-adv-x="1000" />

<glyph glyph-name="eye-disabled" unicode="&#xf107;" d="M78 700l56 56 750-750-56-56-62 63c-38 37-63 59-82 81-59-25-121-38-187-35-103 0-203 32-284 88-82 59-144 141-182 231 35 85 91 156 163 213l-69 68c-16 16-31 29-47 41z m238-231c-16-28-25-60-25-94-3-56 22-109 62-150 41-37 94-62 150-62 31 0 66 9 94 25l-63 62c-9-3-18-6-31-3-69 3-125 56-128 128 0 9 0 22 3 31l-62 63z m187 119c-25 0-53-7-75-16l-94 94c54 22 113 31 169 31 103 0 203-31 285-88 81-56 143-137 181-228-31-75-81-143-144-200l-122 122c10 25 16 50 16 75 3 56-22 110-63 150-43 35-97 56-153 60l0 0z m-6-88h3c69-3 125-56 128-128v-9l-131 137z" horiz-adv-x="1000" />

<glyph glyph-name="eye" unicode="&#xf108;" d="M216 603c172 119 400 119 572 0 81-56 146-137 184-228-100-259-391-388-650-284 0 0 0 0 0 0-38 15-72 31-103 56-81 56-147 137-181 231 28 88 93 169 178 225z m131-384c37-41 94-63 150-63 56-3 112 22 150 63 37 40 62 94 62 150 0 56-21 109-62 150-41 40-94 62-150 62-56 0-109-22-147-62-41-41-62-94-62-150-4-56 18-110 59-150z m62 244c50 46 129 43 175-4 47-50 44-128-3-175-50-46-128-46-175 4-22 21-34 53-34 84 0 34 16 69 37 91z" horiz-adv-x="1000" />

<glyph glyph-name="faq" unicode="&#xf109;" d="M522 575c-38 3-72-9-97-34v-50c25 15 53 22 81 22 35 0 53-16 53-44-3-19-12-38-28-50-31-22-50-56-53-97v-25h53v12c0 38 28 54 57 79 28 21 43 53 43 87 0 69-50 100-109 100z m-16-306c-25 0-47-22-47-47 0-25 22-47 47-47 25 0 44 19 47 44 0 28-22 50-47 50z m28 556c-243 0-440-197-440-437 0-75 19-147 53-213l-125-297 291 128c65-37 143-59 218-59 244 6 435 209 428 453-6 228-193 416-425 425z m0-806c-46 0-93 9-134 25l-25 9c-19 10-37 19-56 35l-156-66 65 162c-12 16-22 32-28 47-3 10-6 16-9 22-72 188 22 400 209 472s400-22 472-209-22-400-209-472c-41-16-85-25-129-25z" horiz-adv-x="1000" />

<glyph glyph-name="file-document" unicode="&#xf10a;" d="M606 819h-450v-938h719v669l-269 269z m19-106l144-144h-144v144z m-406-769v812h344v-250h250v-562h-594z m94 187h218v-62h-218v62z m0 125h406v-62h-406v62z m0 125h406v-62h-406v62z" horiz-adv-x="1000" />

<glyph glyph-name="file-image" unicode="&#xf10b;" d="M606 819h-450v-938h719v669l-269 269z m19-106l144-144h-144v144z m-406-769v812h344v-250h250v-562h-594z m415 472l116-378-469 0 110 209 131-63z m-228-35c0-34 28-62 63-62 34 0 62 28 62 62 0 35-28 63-62 63-35 0-63-28-63-63z" horiz-adv-x="1000" />

<glyph glyph-name="file" unicode="&#xf10c;" d="M606 819h-450v-938h719v669l-269 269z m19-106l144-144h-144v144z m-406-769v812h344v-250h250v-562h-594z" horiz-adv-x="1000" />

<glyph glyph-name="logout" unicode="&#xf10d;" d="M784 684c100-81 157-206 157-334 3-119-44-231-125-316-85-84-200-131-319-125-238-3-438 191-441 432-3 118 47 234 132 318l28 25 65-68c-78-63-125-160-125-266 7-187 160-334 347-331 175 6 319 144 331 319v12c4 103-43 203-125 266l75 68z m-240 107v-491h-97v491h97z" horiz-adv-x="1000" />

<glyph glyph-name="phone" unicode="&#xf10e;" d="M638 325l-63-91c-44 19-141 69-200 200l94 60-116 312-28-6c-153-28-153-28-156-28-85-19-122-109-122-181 0-7 44-588 684-688 10 0 19-3 22-3 66 0 138 37 163 119 0 3 0 3 25 159l6 28-309 119z m212-287c-19-57-72-72-109-66-582 94-619 616-619 619 0 25 12 100 66 112 3 0 81 16 125 22l75-203-94-59 9-25c85-225 272-275 281-279l22-6 63 88 206-78c-9-44-22-110-25-125z" horiz-adv-x="1000" />

<glyph glyph-name="postbox" unicode="&#xf10f;" d="M56 169c0-75 63-138 138-138h612c75 0 138 63 138 138v503h-888v-503z m816-19l-188 191 191 172v-347c0-3 0-10-3-16z m-322 163c-28-25-72-25-100 0l-322 287h741l-319-287z m-241 34l-184-188c0 4 0 7 0 10v344l184-166z m-115-247c-10 0-19 3-25 6l194 197 43-37c53-50 138-50 191 0l37 34 194-194c-9-6-15-6-22-6l-612 0z" horiz-adv-x="1000" />

<glyph glyph-name="refresh" unicode="&#xf110;" d="M241 350h128l-175-175-172 175h128c0 94 34 181 103 241 66 68 153 103 244 103 69 0 131-19 187-60l-65-65c-35 22-81 31-122 28-72 3-134-25-184-78-44-38-69-100-72-169z m562 175l175-175h-128c0-94-34-181-103-241-66-68-153-103-244-103-69 0-131 19-187 60l68 65c35-22 82-31 122-31 69-3 135 25 185 78 47 47 78 113 78 185h-128l162 162z" horiz-adv-x="1000" />

<glyph glyph-name="trashcan" unicode="&#xf111;" d="M847 694h-209v28c0 53-44 97-97 97h-85c-53 0-97-44-97-97v-28h-206c-15 0-28-13-28-28s13-28 28-28h694c16 0 28 12 28 28s-12 28-28 28z m-431 28c0 22 18 41 40 41h85c22 0 40-19 40-41v-28h-165v28z m-228-159l43-647c0-19 16-35 35-35h472c18 0 34 16 34 35l41 647h-625z m162-591l0 0c-16 0-28 12-28 25l-31 459c0 16 9 28 25 28 15 0 28-9 28-25l31-459c0-16-9-28-25-28 0 0 0 0 0 0z m178 28c0-16-12-28-28-28s-28 12-28 28v456c0 16 12 28 28 28s28-12 28-28v-456z m153-3c0-16-12-25-28-25h-3c-16 0-28 12-25 28 0 0 0 0 0 0l28 459c0 16 16 29 28 25 16 0 28-15 25-28l-25-459z" horiz-adv-x="1000" />

<glyph glyph-name="upload" unicode="&#xf112;" d="M125 419l375 369 375-369h-216v-319h-321v319h-213z m-62-403h875v-94h-875v94z" horiz-adv-x="1000" />
</font>
</defs>
</svg>
